The Pirate Bay

Details for: M3GAN.2023.FRENCH-ENG.1080p.WEB.x265-NBDY.mkv

Files:
Size:

Uploaded:
By:

Seeders:
Leechers:
Info Hash:
---Re-encoded from M3GAN.2023.PROPER.FRENCH-ENG.1080p.AMZN.WEB-DL.DDP5.1.H264-FCK-- Format : Matroska Format version : Version 4 File size : 3.04 GiB Duration : 1 h 42 min Overall bit rate : 4 259 kb/s Video ID : 1 Format : HEVC Format/Info : High Efficiency Video Coding Format profile : Main [email protected]@Main Codec ID : V_MPEGH/ISO/HEVC Duration : 1 h 42 min Bit rate : 2 976 kb/s Width : 1 920 pixels Height : 800 pixels Display aspect ratio : 2.40:1 Frame rate mode : Constant Frame rate : 23.976 (24000/1001) FPS Color space : YUV Chroma subsampling : 4:2:0 (Type 0) Bit depth : 10 bits Bits/(Pixel*Frame) : 0.081 Stream size : 2.12 GiB (70%) Default : Yes Forced : No Audio #1 ID : 2 Format : E-AC-3 Format/Info : Enhanced AC-3 Commercial name : Dolby Digital Plus Codec ID : A_EAC3 Duration : 1 h 42 min Bit rate mode : Constant Bit rate : 640 kb/s Channel(s) : 6 channels Channel layout : L R C LFE Ls Rs Sampling rate : 48.0 kHz Frame rate : 31.250 FPS (1536 SPF) Compression mode : Lossy Stream size : 467 MiB (15%) Language : French (VFQ) Default : Yes Forced : No Audio #2 ID : 3 Format : E-AC-3 Format/Info : Enhanced AC-3 Commercial name : Dolby Digital Plus Codec ID : A_EAC3 Duration : 1 h 42 min Bit rate mode : Constant Bit rate : 640 kb/s Channel(s) : 6 channels Channel layout : L R C LFE Ls Rs Sampling rate : 48.0 kHz Frame rate : 31.250 FPS (1536 SPF) Compression mode : Lossy Stream size : 467 MiB (15%) Language : English Default : No Forced : No Text #1 ID : 4 Format : UTF-8 Codec ID : S_TEXT/UTF8 Codec ID/Info : UTF-8 Plain Text Duration : 1 h 25 min Bit rate : 1 b/s Frame rate : 0.006 FPS Count of elements : 33 Stream size : 830 Bytes (0%) Language : French (Forced) Default : Yes Forced : Yes Text #2 ID : 5 Format : UTF-8 Codec ID : S_TEXT/UTF8 Codec ID/Info : UTF-8 Plain Text Duration : 1 h 40 min Bit rate : 64 b/s Frame rate : 0.226 FPS Count of elements : 1370 Stream size : 47.7 KiB (0%) Language : French Default : No Forced : No Text #3 ID : 6 Format : UTF-8 Codec ID : S_TEXT/UTF8 Codec ID/Info : UTF-8 Plain Text Duration : 1 h 32 min Bit rate : 73 b/s Frame rate : 0.242 FPS Count of elements : 1342 Stream size : 49.9 KiB (0%) Language : English Default : No Forced : No Text #4 ID : 7 Format : UTF-8 Codec ID : S_TEXT/UTF8 Codec ID/Info : UTF-8 Plain Text Duration : 1 h 32 min Bit rate : 78 b/s Frame rate : 0.268 FPS Count of elements : 1490 Stream size : 53.6 KiB (0%) Language : English (SDH) Default : No Forced : No https://www.imdb.com/title/tt8760708/ https://www.allocine.fr/film/fichefilm_gen_cfilm=266320.html